img image001 image001 image001 image001 image001 image001 image001 image001 image001 image001 image001 image001 image001 image001 image001

Planets Sun Sun Sun
Статистика раздачи
Автор: PriZraK | Размер: 3.14 ГБ | Добавлен: 18 фев 2017
Раздают: 11    Качают: 0
Скачать торрент
Скачать торрент
Описание торрента

СообщениеДобавлено: 18 фев 2017 


Информация о фильме
    Русское название: Запределье
    Оригинальное название: The Fall
    Год выхода: 2006
    Жанр: фэнтези, драма, комедия, приключения
    Режиссер: Роберт Родригес
    Выпущено: США, ЮАР, Индия
    Продолжительность: 01:57:07
    Перевод: Дублированный
    В ролях: Ли Пэйс, Катинка Унтару, Джастин Уэдделл, Джулиан Блич, Лео Билл, Маркус Уэсли, Робин Смит, Даниэль Калтаджироне


Сюжет фильма
    Головорез Черный бандит, сбежавший африканский раб Отта Бенга, индийский мудрец, итальянский революционер Луихи и натуралист Чарльз Дарвин — герои сказок голливудского каскадера Роя, получившего травму после неудачного трюка на мосту. В лос-анджелесском госпитале его фантазии слушает пятилетняя румынская девочка Александрия. Но однажды Рой узнает, что возлюбленная предала его, он больше не хочет жить и мечтает покончить с собой. В этот момент к нему снова приходит Александрия. Запредельная сказка продолжается…


Файл
    Качество: BDRip-AVC (исходник Blu-Ray Disc Remux)
    Формат: MKV
    Видео: 1024x556, 2944 Кбит/сек, 23,976 кадр/сек, AVC, x264, High@L4.1, 1.85:1, 0.216 Бит/[Пиксели*Кадры]
    Аудио 1: AC-3, 448 Кбит/сек, 6 канала(ов), 48,0 КГц - Дублированный / Русский
    Аудио 2: AC-3, 448 Кбит/сек, 6 канала(ов), 48,0 КГц - Оригинал / Английский
    Субтитры: Русские | Полные, Английские | Полные
    Форсированные субтитры: Нет
    Чаптеры (Главы): Нет



Автор Рипа: Группа:



Format : Matroska
Format version : Version 2
File size : 3.14 GiB
Duration : 1 h 57 min
Overall bit rate : 3 841 kb/s
Movie name : The Fall.(2006).BDRip.AVC.[envy]
Encoded date : UTC 2017-02-18 07:57:31
Writing application : mkvmerge v5.8.0 ('No Sleep / Pillow') built on Sep 2 2012 15:37:04
Writing library : libebml v1.2.3 + libmatroska v1.3.0
Video
ID : 1
Format : AVC
Format/Info : Advanced Video Codec
Format profile : High@L4.1
Format settings, CABAC : Yes
Format settings, ReFrames : 10 frames
Codec ID : V_MPEG4/ISO/AVC
Duration : 1 h 57 min
Bit rate : 2 944 kb/s
Width : 1 024 pixels
Height : 556 pixels
Display aspect ratio : 1.85:1
Frame rate mode : Constant
Frame rate : 23.976 (24000/1001) FPS
Color space : YUV
Chroma subsampling : 4:2:0
Bit depth : 8 bits
Scan type : Progressive
Bits/(Pixel*Frame) : 0.216
Stream size : 2.35 GiB (75%)
Title : The Fall.(2006).BDRip.AVC.[envy]
Writing library : x264 core 148 r2744 b97ae06
Encoding settings : cabac=1 / ref=10 / deblock=1:-3:-3 / analyse=0x3:0x133 / me=esa / subme=11 / psy=1 / psy_rd=1.00:0.10 / mixed_ref=1 / me_range=24 / chroma_me=1 / trellis=2 / 8x8dct=1 / cqm=0 / deadzone=21,11 / fast_pskip=1 / chroma_qp_offset=-3 / threads=12 / lookahead_threads=1 / sliced_threads=0 / nr=0 / decimate=1 / interlaced=0 / bluray_compat=0 / constrained_intra=0 / bframes=5 / b_pyramid=2 / b_adapt=2 / b_bias=0 / direct=3 / weightb=1 / open_gop=0 / weightp=2 / keyint=240 / keyint_min=23 / scenecut=40 / intra_refresh=0 / rc=2pass / mbtree=0 / bitrate=2944 / ratetol=2.0 / qcomp=0.60 / qpmin=0 / qpmax=69 / qpstep=4 / cplxblur=20.0 / qblur=0.5 / ip_ratio=1.40 / pb_ratio=1.30 / aq=1:0.70
Language : English
Default : Yes
Forced : No
Audio #1
ID : 2
Format : AC-3
Format/Info : Audio Coding 3
Mode extension : CM (complete main)
Format settings, Endianness : Big
Codec ID : A_AC3
Duration : 1 h 57 min
Bit rate mode : Constant
Bit rate : 448 kb/s
Channel(s) : 6 channels
Channel positions : Front: L C R, Side: L R, LFE
Sampling rate : 48.0 kHz
Frame rate : 31.250 FPS (1536 spf)
Compression mode : Lossy
Stream size : 375 MiB (12%)
Title : Dub
Language : Russian
Default : Yes
Forced : No
Audio #2
ID : 3
Format : AC-3
Format/Info : Audio Coding 3
Mode extension : CM (complete main)
Format settings, Endianness : Big
Codec ID : A_AC3
Duration : 1 h 57 min
Bit rate mode : Constant
Bit rate : 448 kb/s
Channel(s) : 6 channels
Channel positions : Front: L C R, Side: L R, LFE
Sampling rate : 48.0 kHz
Frame rate : 31.250 FPS (1536 spf)
Compression mode : Lossy
Stream size : 375 MiB (12%)
Title : Eng
Language : English
Default : No
Forced : No
Text #1
ID : 4
Format : UTF-8
Codec ID : S_TEXT/UTF8
Codec ID/Info : UTF-8 Plain Text
Title : Rus full
Language : Russian
Default : No
Forced : No
Text #2
ID : 5
Format : UTF-8
Codec ID : S_TEXT/UTF8
Codec ID/Info : UTF-8 Plain Text
Title : Eng full
Language : English
Default : No
Forced : No




   Похожие торренты   Торрент   Размер 
В этой теме нет новых непрочитанных сообщений. Запределье / The Fall (2006) BDRip

84 | 5

2.14 ГБ

В этой теме нет новых непрочитанных сообщений. Запределье / The Fall (2006) BDRip-AVC

12 | 2

1.65 ГБ

В этой теме нет новых непрочитанных сообщений. Запределье / The Fall (2006) BDRip 720p | D, P, A

221 | 14

7.93 ГБ

В этой теме нет новых непрочитанных сообщений. Запределье / The Fall (2006) BDRip 1080p | D, P

303 | 21

10.7 ГБ

В этой теме нет новых непрочитанных сообщений. Запределье / The Fall (2006) BDRip от HQCLUB

374 | 14

2.18 ГБ

В этой теме нет новых непрочитанных сообщений. Запределье / The Fall (2006) BDRip 720p от NOLIMITS-TEAM

33 | 2

2.17 ГБ

В этой теме нет новых непрочитанных сообщений. Запределье / The fall (2006) DVDRip

13 | 3

1.37 ГБ




Вы не можете начинать темы
Вы не можете отвечать на сообщения
Вы не можете редактировать свои сообщения
Вы не можете удалять свои сообщения
Вы не можете добавлять вложения

Перейти:  
 Вход
ppkBB3cker v.2 © 2008-2014 @ PPK
[ Time : 0.041s | 16 Queries | GZIP : Off ]

cron