img image001 image001 image001 image001 image001 image001 image001 image001 image001 image001 image001 image001 image001 image001 image001

Planets Sun Sun Sun
Статистика раздачи
Автор: Снежана | Размер: 4.36 ГБ | Добавлен: 22 июл 2013
Раздают: 77    Качают: 13
Скачать торрент
Скачать торрент
Описание торрента

СообщениеДобавлено: 22 июл 2013 

#77

Фантастическая четверка: Вторжение Серебряного серфера / Fantastic Four: Rise of the Silver Surfer (2007) BDRip 1080p от NOLIMITS-TEAM


Информация о фильме
Название: Фантастическая четверка: Вторжение Серебряного серфера
Оригинальное название: Fantastic Four: Rise of the Silver Surfer
Год выхода: 2007
Жанр: фантастика, фэнтези, боевик, приключения, триллер
Режиссер: Тим Стори
В ролях: Йоан Гриффит, Джессика Альба, Крис Эванс, Майкл Чиклис, Джулиан МакМэхон, Керри Вашингтон, Андре Брогер, Лоренс Фишбёрн, Даг Джонс, Бо Гаррет

Сюжет фильма: Фантастическая четверка получает вызов со стороны великого и могучего Серебряного Серфера — таинственного межгалактического вестника, который прилетает на Землю, чтобы подготовить ее к полному разрушению. Пока Серебряный Серфер носится по всему земному шару, разрушая все на своём пути, Рид, Сью, Джонни и Бен должны разгадать его тайну и найти способ противостоять внезапному появлению их смертельного врага — доктора Дума.

«Rise»


Выпущено: США, Германия, Великобритания
Продолжительность: 01:31:51
Перевод: Дублированный
Субтитры: Russian(Full,Force)

Файл


Качество: BDRip 1080p (исходник Blu-ray Disc)
Видео: 1920x800, 6430 Кбит/сек, 23.976 кадр/сек, AVC, x264, 2.40:1, 0.175 Бит/(Пиксели*Кадры)
Аудио: AC-3, 384 Кбит/сек, 6 канала(ов), 48,0 КГц
Чаптеры: Нет
Размер: 4.36 Гб





Релиз Группа | Автор Рипа: Frisha
Бюджет Фильма: $130 000 000
Кассовые сборы: $289 047 763 + DVD в США $50 775 159






Format : Matroska
Format version : Version 2
File size : 4.36 GiB
Duration : 1h 31mn
Overall bit rate : 6 801 Kbps
Movie name : Rip by Frisha (NOLIMITS-TEAM.RU)
Encoded date : UTC 2012-09-14 23:56:23
Writing application : mkvmerge v5.8.0 ('No Sleep / Pillow') built on Sep 2 2012 15:37:04
Writing library : libebml v1.2.3 + libmatroska v1.3.0

Video
ID : 1
Format : AVC
Format/Info : Advanced Video Codec
Format profile : High@L4.1
Format settings, CABAC : Yes
Format settings, ReFrames : 5 frames
Codec ID : V_MPEG4/ISO/AVC
Duration : 1h 31mn
Bit rate : 6 430 Kbps
Width : 1 920 pixels
Height : 800 pixels
Display aspect ratio : 2.40:1
Frame rate mode : Constant
Frame rate : 23.976 fps
Color space : YUV
Chroma subsampling : 4:2:0
Bit depth : 8 bits
Scan type : Progressive
Bits/(Pixel*Frame) : 0.175
Stream size : 4.03 GiB (92%)
Title : Фантастическая четвёрка: Вторжение Серебряного сёрфера (2007) BDRip 1080p от NOLIMITS-TEAM
Writing library : x264 core 125 r2208 d9d2288
Encoding settings : cabac=1 / ref=5 / deblock=1:0:0 / analyse=0x3:0x113 / me=umh / subme=11 / psy=1 / psy_rd=1.00:0.10 / mixed_ref=1 / me_range=32 / chroma_me=1 / trellis=2 / 8x8dct=1 / cqm=0 / deadzone=21,11 / fast_pskip=0 / chroma_qp_offset=-3 / threads=12 / lookahead_threads=2 / sliced_threads=0 / nr=0 / decimate=0 / interlaced=0 / bluray_compat=0 / constrained_intra=0 / bframes=6 / b_pyramid=2 / b_adapt=2 / b_bias=0 / direct=3 / weightb=1 / open_gop=0 / weightp=2 / keyint=240 / keyint_min=24 / scenecut=40 / intra_refresh=0 / rc_lookahead=60 / rc=2pass / mbtree=1 / bitrate=6430 / ratetol=2.0 / qcomp=0.60 / qpmin=0 / qpmax=51 / qpstep=4 / cplxblur=20.0 / qblur=0.5 / ip_ratio=1.40 / aq=1:1.00
Language : English
Default : Yes
Forced : No

Audio
ID : 2
Format : AC-3
Format/Info : Audio Coding 3
Mode extension : CM (complete main)
Format settings, Endianness : Big
Codec ID : A_AC3
Duration : 1h 31mn
Bit rate mode : Constant
Bit rate : 384 Kbps
Channel(s) : 6 channels
Channel positions : Front: L C R, Side: L R, LFE
Sampling rate : 48.0 KHz
Bit depth : 16 bits
Compression mode : Lossy
Stream size : 252 MiB (6%)
Title : Дублированный
Language : Russian
Default : Yes
Forced : No

Text #1
ID : 3
Format : UTF-8
Codec ID : S_TEXT/UTF8
Codec ID/Info : UTF-8 Plain Text
Title : Russian(Force)
Language : Russian
Default : Yes
Forced : Yes

Text #2
ID : 4
Format : UTF-8
Codec ID : S_TEXT/UTF8
Codec ID/Info : UTF-8 Plain Text
Title : Russian(Full)
Language : Russian
Default : No
Forced : No




   Похожие торренты   Торрент   Размер 
В этой теме нет новых непрочитанных сообщений. Фантастическая четверка: Вторжение Серебряного серфера / Fantastic Four: Rise of the Silver Surfer (2007) BDRip 1080p от FreeHD

113 | 13

7.95 ГБ

В этой теме нет новых непрочитанных сообщений. Фантастическая четверка: Вторжение Серебряного серфера / Fantastic Four: Rise of the Silver Surfer (2007) BDRip от HQCLUB

144 | 19

1.46 ГБ

В этой теме нет новых непрочитанных сообщений. Фантастическая четверка: Вторжение Серебряного серфера / 4: Rise of the Silver Surfer (2007) HDRip-AVC от New-Team

199 | 24

744.97 МБ

В этой теме нет новых непрочитанных сообщений. Фантастическая четверка 2 Вторжение Серебряного серфера / 4 Rise of the Silver Surfer (2007) BDRip от RP4 CHG

22 | 4

701.63 МБ

В этой теме нет новых непрочитанных сообщений. Фантастическая четверка 2: Вторжение Серебряного Серфера / 4: Rise of the Silver Surfer (2007) BDRip от HQ-ViDEO

504 | 25

1.46 ГБ

В этой теме нет новых непрочитанных сообщений. Фантастическая четверка: Вторжение Серебряного серфера / 4: Rise of the Silver (2007) BDRip 720p от Leonardo and Scarabey

832 | 92

3.81 ГБ

В этой теме нет новых непрочитанных сообщений. Фантастическая четверка / Fantastic Four (2005) BDRip 1080p от NOLIMITS-TEAM | Лицензия

181 | 23

4.37 ГБ




Вы не можете начинать темы
Вы не можете отвечать на сообщения
Вы не можете редактировать свои сообщения
Вы не можете удалять свои сообщения
Вы не можете добавлять вложения

Перейти:  
 Вход
ppkBB3cker v.2 © 2008-2014 @ PPK
[ Time : 0.030s | 18 Queries | GZIP : Off ]

cron