img image001 image001 image001 image001 image001 image001 image001 image001 image001 image001 image001 image001 image001 image001 image001

Planets Sun Sun Sun
Статистика раздачи
Автор: Снежана | Размер: 1.37 ГБ | Добавлен: 22 июл 2013
Раздают: 307    Качают: 19
Скачать торрент
Скачать торрент
Описание торрента

СообщениеДобавлено: 22 июл 2013 

#77

Информация о фильме
Название: Фантоцци
Оригинальное название: Fantozzi
Год выхода: 1975
Жанр: Комедия
Режиссер: Лучиано Салче
В ролях: Паоло Вилладжио, Анна Маццамауро, Гиги Редер, Джузеппе Анатрелли, Умберто Д`Орси, Паоло Паолони

О фильме:
Уго Фантоцци всю жизнь работает младшим бухгалтером, ездит на работу в автобусе, никогда не изменял жене. Начальство ни разу не повысило ему зарплату, женщины его не замечают, а коллеги не помнят, как его зовут. Однажды Фантоцци застрял в лифте и просидел там 18 дней - никто даже не заметил его отсутствия. Так больше жить нельзя! С понедельника Фантоцци начнет новую жизнь! Он купит себе новый костюм - черный, в белую полоску, пригласит на свидание самую красивую девушку бухгалтерии, пойдет к директору и потребует повысить зарплату, на целых 10 долларов...


Страна: Италия
Студия: Rizzoli Film S.P.A.
Продолжительность: 01:37:12
Перевод: Профессиональный (многоголосый закадровый)

Файл
Кодек: Xvid
Качество: DVDRip
Видео: 704x400, ~1781 Кбит/с, 25 fps
Звук: АС3, 2 ch, 224 Кбит/с
Субтитры: Нет

Семпл


General
Complete name : F:ФИЛЬМЫ-КОЛЛЕКЦИЯФ-ФFantocci.1975.XviD.DVDRip.avi
Format : AVI
Format/Info : Audio Video Interleave
File size : 1.37 GiB
Duration : 1h 37mn
Overall bit rate : 2 012 Kbps
Writing application : VirtualDubMod 1.5.4.1 (build 2178/release)
Writing library : VirtualDubMod build 2178/release

Video
ID : 0
Format : MPEG-4 Visual
Format profile : Advanced Simple@L5
Format settings, BVOP : 1
Format settings, QPel : No
Format settings, GMC : No warppoints
Format settings, Matrix : Custom
Codec ID : XVID
Codec ID/Hint : XviD
Duration : 1h 37mn
Bit rate : 1 781 Kbps
Width : 704 pixels
Height : 400 pixels
Display aspect ratio : 16:9
Frame rate : 25.000 fps
Color space : YUV
Chroma subsampling : 4:2:0
Bit depth : 8 bits
Scan type : Progressive
Compression mode : Lossy
Bits/(Pixel*Frame) : 0.253
Stream size : 1.21 GiB (89%)
Writing library : XviD 1.2.0.dev47 (UTC 2006-11-01)

Audio
ID : 1
Format : AC-3
Format/Info : Audio Coding 3
Mode extension : CM (complete main)
Format settings, Endianness : Big
Codec ID : 2000
Duration : 1h 37mn
Bit rate mode : Constant
Bit rate : 224 Kbps
Channel(s) : 2 channels
Channel positions : Front: L R
Sampling rate : 48.0 KHz
Bit depth : 16 bits
Compression mode : Lossy
Stream size : 156 MiB (11%)
Alignment : Split accross interleaves
Interleave, duration : 96 ms (2.40 video frames)
Interleave, preload duration : 96 ms
Language : Russian



   Похожие торренты   Торрент   Размер 
В этой теме нет новых непрочитанных сообщений. Фантоцци / Fantozzi (1975) DVDRip

10 | 4

697.81 МБ

В этой теме нет новых непрочитанных сообщений. Фантоцци / Fantozzi (1975) DVDRip-AVC | P

27 | 0

3.54 ГБ

В этой теме нет новых непрочитанных сообщений. Фантоцци в раю / Fantozzi in paradiso (1993) DVDRip - AVC | P

6 | 3

3.07 ГБ

В этой теме нет новых непрочитанных сообщений. Фантоцци в раю / Fantozzi in paradiso (1993) DVDRip

306 | 11

1.37 ГБ

В этой теме нет новых непрочитанных сообщений. Возвращение Фантоцци / Fantozzi - Il ritorno (1996) DVDRip

14 | 7

696.79 МБ

В этой теме нет новых непрочитанных сообщений. Возвращение Фантоцци / Fantozzi - Il ritorno (1996) DVDRip | P

208 | 10

1.37 ГБ

В этой теме нет новых непрочитанных сообщений. Возвращение Фантоцци / Fantozzi - Il ritorno (1996) DVDRip - AVC | P, L

5 | 4

3.1 ГБ




Вы не можете начинать темы
Вы не можете отвечать на сообщения
Вы не можете редактировать свои сообщения
Вы не можете удалять свои сообщения
Вы не можете добавлять вложения

Перейти:  
 Вход
ppkBB3cker v.2 © 2008-2014 @ PPK
[ Time : 0.029s | 17 Queries | GZIP : Off ]

cron